#TITLE:王牌大骗子;
#SUBTITLE:;
#ARTIST:Unknown artist;
#TITLETRANSLIT:;
#SUBTITLETRANSLIT:;
#ARTISTTRANSLIT:;
#CREDIT:;
#BANNER:y-logo.jpg;
#BACKGROUND:y.jpg;
#LYRICSPATH:;
#CDTITLE:Lan.png;
#MUSIC:y.mp3;
#OFFSET:0.000;
#SAMPLESTART:100.000;
#SAMPLELENGTH:12.000;
#SELECTABLE:YES;
#BPMS:0.000=136.030;
#STOPS:;
#BGCHANGES:;
// cache tags:
#FIRSTBEAT:0.000;
#LASTBEAT:328.000;
#SONGFILENAME:Songs/SDO 2/y/y.sm;
#HASMUSIC:1;
#HASBANNER:1;
#MUSICLENGTH:148.078;
// end cache tags

//---------------dance-single - 标准----------------
#NOTES:
     dance-single:
     标准:
     Hard:
     8:
     0.607,0.775,0.561,0.020,0.307,537.000,83.000,3.000,0.000,6.000:


0100
0000
0001
0000
1000
0010
0000
0100
,
0000
0001
0000
0100
1000
0000
0010
0000
,
0100
0000
1000
0000
0010
0001
0000
0100
,
0000
1000
0000
0100
0011
0010
1000
0100
,
0001
0100
0010
0000
1010
0000
0101
0010
,
1000
0000
0101
0010
1000
0000
1001
0000
,
0111
0010
0000
0000
0000
0000
1000
0100
0000
0000
0000
0000
0010
0001
0000
0000
,
1000
0100
0010
0000
1000
0000
0000
0000
0100
0010
0000
0001
1010
0100
0010
0000
,
1011
0001
1000
0100
,
0001
0010
1000
0100
,
1001
0010
1000
0001
,
0100
0001
0010
1000
,
0101
1000
0010
0100
,
0001
0010
1000
0100
,
0011
0100
0001
1000
,
0100
0000
0001
0000
0100
0000
0001
0000
0010
0100
1000
0000
0101
0000
0010
1000
,
0111
0000
1001
0000
1010
0100
0001
0010
,
1000
0100
0001
1000
0101
0000
0011
0000
,
1010
0000
0101
0000
0110
0001
1000
0100
,
0001
0010
1000
0100
1001
0000
0101
0000
,
1010
1001
1100
1001
,
1200
0000
0000
0000
0010
0000
0000
0300
0021
0000
0000
0000
0100
0000
0000
0030
,
1001
0010
0000
0000
0000
0000
0100
0010
0000
0000
0000
0000
0001
1000
0000
0000
,
0100
0000
0001
0000
1000
0000
0010
0000
0100
0010
0001
0000
0010
0000
0100
1000
,
0111
1100
0101
0010
,
1000
0100
0001
0010
1010
0000
0110
0000
,
0101
0000
1100
0000
0101
0010
1000
0100
,
0001
0010
1000
0100
0011
0000
1010
0000
,
0101
0000
1001
0000
0101
1000
0100
1000
,
0001
0100
0001
0010
0110
0000
1001
0000
,
0101
0000
1010
0000
0101
0010
1000
0100
,
0001
0000
1000
0000
0010
0000
1000
0000
0101
0010
1000
0000
0101
0000
0010
0100
,
1100
0010
0001
1000
0100
0001
0010
1000
,
0100
0001
1000
0100
0101
1010
0100
0011
,
1000
0101
0010
1000
0100
0001
0010
1000
,
0100
0001
0010
1000
0101
0011
1000
0011
,
0100
1000
0001
0010
1000
0100
0001
0010
,
0001
1000
0100
0010
1001
0110
0001
0110
,
1000
0101
0010
1010
0100
0011
1000
1100
,
0001
1001
0010
1001
0100
0101
0010
1010
,
0101
0010
0100
1000
,
0001
0000
0000
0000
0010
0000
0000
0000
1000
0100
0010
0000
0001
0010
0100
1000
,
0111
0000
0010
0100
0000
0010
0100
0000
0010
1000
0000
0100
0000
0001
0000
0010
,
0100
1000
0000
0100
0000
0010
0000
0001
0010
0001
0010
1000
0000
0100
0010
0000
,
0100
0000
0000
0010
0000
0000
0001
0000
0000
0000
0000
0000
0010
0000
0000
0000
0000
0000
0100
0000
0000
1000
0000
0000
0000
0000
0100
0000
0000
0000
1000
0000
0000
0000
0000
0000
0010
0000
0000
0000
0000
0000
0100
0000
0000
0010
0000
0000
,
0001
0000
0000
0010
0000
0000
1000
0000
0100
0000
0010
0000
0000
1000
0000
0000
,
0100
0000
0000
0001
0000
0000
0010
0000
0100
0000
0000
0000
0000
0000
1000
0000
,
0100
0000
0000
0010
0000
0000
1000
0000
0100
0000
0000
0001
0000
0000
1000
0000
,
0100
0010
0000
0100
0000
0001
0000
0010
0000
1000
0000
0100
0010
0000
0001
0000
,
0010
0100
0000
0010
0000
0000
1000
0000
0100
0000
0000
0001
0000
0000
0010
0000
,
1000
0000
0000
0000
0000
0000
0100
0000
0000
0000
0000
0000
0010
0000
0000
0000
0010
0000
0001
0000
0000
0000
0000
0000
0010
0000
0000
0100
0000
0000
1000
0000
0000
0100
0000
0000
0010
0000
0000
0000
0000
0000
0100
0000
0000
0010
0000
0000
,
0001
0000
0010
0000
1000
0000
0000
0100
0100
0010
0001
1000
0100
0010
0001
0010
,
0100
0010
0100
1000
0100
0010
0001
0010
0001
0010
0100
1000
0100
0010
0100
0000
,
0100
0010
0001
0100
0000
0010
0000
0000
1000
0100
0010
0100
0000
0010
0000
0000
,
1000
0000
0000
0000
0000
0000
0001
0000
0000
0000
0000
0000
0010
0000
0000
0000
0010
0000
0100
0000
0000
0000
0010
0000
0100
0000
0000
1000
0000
0000
0100
0000
0000
0010
0000
0000
0001
0000
0000
0010
0000
0000
0000
0000
0000
0000
0000
0000
,
0000
0000
0000
0000
0000
0000
0100
0000
0000
0000
0000
0000
0001
0000
0000
0000
0100
0000
0010
0000
0000
0000
0000
0000
0000
0100
0000
0010
0000
0000
0000
0000
0000
0000
0000
0000
1000
0000
0000
0000
0000
0000
0100
0000
0000
0000
0000
0000
,
0001
0000
0010
0000
1000
0100
0001
0000
0010
1000
0000
0000
0100
0000
0010
0000
,
1000
0100
0010
0001
0100
0010
0001
0010
0100
0010
0100
1000
0100
0010
0100
0001
,
1110
0001
1000
0100
,
0101
0010
1000
0001
,
0100
0010
0001
1000
,
0101
0010
1000
0100
,
1000
0010
0001
0010
,
0101
0000
0010
0000
1010
0100
0001
0100
,
0010
1000
0010
0100
0001
1000
0010
0001
,
0100
0000
1000
0000
0010
0000
0001
0000
0100
0000
1000
0000
0100
0000
0010
0001
,
1010
0100
0001
0010
,
1001
0000
0100
0000
0011
1000
0100
0001
,
0010
1000
0001
0000
0010
0000
0100
0000
,
1001
0000
0100
0000
1100
0001
0010
1000
,
0001
0010
1000
0100
,
0101
0000
0010
0000
1010
0100
0001
0010
,
1000
0100
0001
0010
1000
0100
0001
0010
,
0001
1000
0100
0000
0001
1000
0010
0100
,
1001
0000
0000
0000
,
0000
0100
0001
0010
0000
1000
0100
0001
,
0010
0000
1000
0000
0100
0001
0000
0010
,
0000
1000
0000
0100
0001
0000
0010
0000
,
1000
0000
0001
0000
0100
0010
0000
0001
,
0000
1000
0000
0100
0001
0000
0010
0000
,
1000
0000
0100
0000
,
0001
0000
0020
0000
,
0030
0000
0000
0000
;
